Paddington 2 (2017)
[ Download from this server (96.9 Kb) ]2018-03-18, 11:30 PM

9.63 GB

Paddington is happily settled with the Brown family in Windsor Gardens, where he has become a popular member of the community, spreading joy and marmalade wherever he goes. While searching for the perfect present for his beloved Aunt Lucy's 100th birthday, Paddington 2 (2017) Torrent Paddington spots a unique pop-up book in Mr. Gruber's antique shop, and embarks upon a series of odd jobs to buy it. But when the book is stolen, it's up to Paddington and the Browns to unmask the thief.

8e4575197c70a9e710aacac16b51cbc6.th.png 2e5fb239235497bc3249e306f1f1a95e.th.png

A merry and kind bear from the family of Peruvian dwarf bears named Paddington 2 (2017) Torrent, stayed in London and firmly established. This lovely bear took to itself, Paddington 2 (2017) Torrent the Brown family, which provided it with shelter and food. Paddington 2 (2017) Torrent But the main character, decides to be very polite and does not intend to interfere with the family in their measured and established life.

Paddington 2 (2017) Torrent decides to find a full-fledged work, which will provide an opportunity to be self-sufficient and fully self-sufficient. The first work for which a dwarf bear was admitted is cleaning the windows, but here Paddington 2 (2017) Torrent encounters the first inconvenience - it turned out that the bear cub is not so simple, raise the bucket and climb up to it with great height. But since Paddington is not an ordinary bear, Paddington 2 (2017) Torrent he was able to cope with the initial difficulties and already dreams of getting his first salary and thinks what to spend it on.

Video
ID                                       : 1
Format                                   : AVC
Format/Info                              : Advanced Video Codec
Format profile                           : High@L4.1
Format settings                          : CABAC / 5 Ref Frames
Format settings, CABAC                   : Yes
Format settings, ReFrames                : 5 frames
Codec ID                                 : V_MPEG4/ISO/AVC
Duration                                 : 1 h 43 min
Bit rate                                 : 11.8 Mb/s
Width                                    : 1 920 pixels
Height                                   : 800 pixels
Display aspect ratio                     : 2.40:1
Frame rate mode                          : Constant
Frame rate                               : 24.000 FPS
Color space                              : YUV
Chroma subsampling                       : 4:2:0
Bit depth                                : 8 bits
Scan type                                : Progressive
Bits/(Pixel*Frame)                       : 0.321
Stream size                              : 8.54 GiB (89%)
Title                                    : Paddington.2.2017.1080p.BluRay.x264.DTS-FGT
Writing library                          : x264 core 148 r2795M aaa9aa8
Encoding settings                        : cabac=1 / ref=5 / deblock=1:0:0 / analyse=0x3:0x133 / me=umh / subme=10 / psy=1 / psy_rd=1.00:0.00 / mixed_ref=1 / me_range=24 / chroma_me=1 / trellis=2 / 8x8dct=1 / cqm=0 / deadzone=21,11 / fast_pskip=1 / chroma_qp_offset=-2 / threads=24 / lookahead_threads=4 / sliced_threads=0 / nr=0 / decimate=1 / interlaced=0 / bluray_compat=0 / constrained_intra=0 / bframes=8 / b_pyramid=2 / b_adapt=2 / b_bias=0 / direct=3 / weightb=1 / open_gop=0 / weightp=2 / keyint=240 / keyint_min=24 / scenecut=40 / intra_refresh=0 / rc_lookahead=60 / rc=crf / mbtree=1 / crf=15.0 / qcomp=0.60 / qpmin=0 / qpmax=69 / qpstep=4 / ip_ratio=1.40 / aq=1:1.00
Language                                 : English
Default                                  : Yes
Forced                                   : No

Audio
ID                                       : 2
Format                                   : DTS
Format/Info                              : Digital Theater Systems
Codec ID                                 : A_DTS
Duration                                 : 1 h 43 min
Bit rate mode                            : Constant
Bit rate                                 : 1 509 kb/s
Channel(s)                               : 6 channels
Channel positions                        : Front: L C R, Side: L R, LFE
Sampling rate                            : 48.0 kHz
Frame rate                               : 93.750 FPS (512 SPF)
Bit depth                                : 16 bits
Compression mode                         : Lossy
Stream size                              : 1.09 GiB (11%)
Title                                    : Paddington.2.2017.1080p.BluRay.x264.DTS-FGT
Language                                 : English
Default                                  : No
Forced                                   : No

Text
ID                                       : 3
Format                                   : UTF-8
Codec ID                                 : S_TEXT/UTF8
Codec ID/Info                            : UTF-8 Plain Text
Duration                                 : 1 h 39 min
Bit rate                                 : 67 b/s
Count of elements                        : 1454
Stream size                              : 49.0 KiB (0%)
Language                                 : English
Default                                  : Yes
Forced                                   : No

Menu
00:00:00.000                             : en:Chapter 01
00:08:08.500                             : en:Chapter 02
00:18:48.541                             : en:Chapter 03
00:27:05.958                             : en:Chapter 04
00:38:47.333                             : en:Chapter 05
00:47:46.875                             : en:Chapter 06
00:55:53.666                             : en:Chapter 07
01:02:17.458                             : en:Chapter 08
01:09:31.833                             : en:Chapter 09
01:16:39.000                             : en:Chapter 10
01:24:13.208                             : en:Chapter 11
01:33:50.208                             : en:Chapter 12

Category: Adventure | Added by: mikail | Tags: watch torrents, Download, 2017 movies torrent, Paddington 2 torrent, HD, 2018 for free, 2018 movies torrents
Views: 336 | Downloads: 79 | Rating: 5.0/1
Total comments: 0
avatar